Schlagwort-Archiv: TMS

[Update] Katzenauge in HD für Frankreich?!?

Hi Leute,

wer von euch Katzenauge schon immer mal in HD genießen wollte, wer von euch Französisch sprechen kann oder es vor hat zu lernen, der kann jetzt seine Chance nutzen. Auf dem Kickstarter ähnlichen Portal My Major Company hat All the Anime France ein Projekt ins Leben gerufen, bei dem die Unterstützer die Gelegenheit haben die erste und zweite Staffel von Cat’s Eye auf Blu-ray zu bekommen. Da ich selbst ein großer Fan der Serie bin und mir überlege das Projekt zu unterstützen, will ich euch das Ganze auch etwas näher bringen.

Warum sollte man dieses Projekt unterstützen?

Der Hauptgrund dies Projekt auf einer Crowdfunding-Plattform zu starten ist, laut All the Anime France, dass die Kosten für dieses Release wohl ziemlich hoch sind. Zum einen wollen die Rechteinhaber der Serie bezahlt werden, zum anderen umfasst die Serie knapp 30 Stunden Videomaterial. Diese müssen geprüft, die französische Sprachfassung und die Untertitel angepasst, Menüs für die Disks programmiert und die Qualität des fertigen Encodes überprüft werden, noch bevor die Disks gepresst werden können. Da sich eine solche Collector’s Edition an nur eine sehr kleine Gruppe von Käufern richtet, macht es kaum Sinn sie bei einem Multimediageschäft in ein Regal zu stellen. Deshalb richtet man sich direkt an die Community mit der Idee einer solchen Veröffentlichung.

Ich selbst habe, wie ihr vielleicht wisst, wenn ihr immer mal wieder reingeschaut habt, die erste Box der Serie bereits zum Release in Japan nach Deutschland importiert und war sehr zufrieden mit der Qualität, die man geboten bekommt. Wie wir alle wissen, sind die japanischen Blu-rays nicht die Günstigsten und beide Boxen kosten aktuell knapp 340€ auf Amazon.co.jp. Und an dieser Stelle können wir von der diesem Projekt profitieren. Bereits ab 120€ bekommt man die komplette Serie auf Blu-ray und DVD inklusive eines Artbooks nach Hause geliefert. Zum Inhalt aber gleich noch mehr. Hier sind noch zwei Screenshots von der DVD und der Blu-ray, damit ihr den Unterschied zwischen den beiden Versionen sehen könnt.

HD-Fassung

HD-Fassung

hochskalierte deutsche SD-Fassung

hochskalierte deutsche SD-Fassung

Was bekommt man eigentlich geboten?

Kurz zusammengefasst bekommt man die folgenden Sachen in den verschiedenen Editionen:

  • die komplette Serie in HD verteilt auf 8 Blu-rays
  • die komplette Serie in SD verteilt auf 10 DVDs
  • Digipacks, die eigens für dieses Release entworfen wurden
  • ein Set mit Katzenaugen Karten
  • ein Artbook mit Skizzen und Illustrationen

Der Teufel liegt aber natürlich im Detail. Insgesamt gibt es 9 verschiedene Angebote, die man unterstützen kann. Die ersten Beiden beinhalten lediglich die DVDs der ersten und zweiten Staffel. Bei den weiteren wird es für uns Blu-ray-Liebhaber interessanter!

CatsEyeLimiteriteCELimitierte Collector’s Edition – 110€ / 120€
Die limitierte Collector’s Edition bekommt man als Unterstützer für 120€, eine begrenzte Anzahl sogar für nur 110€. Darin enthalten sind alle 73 Episoden der Serie auf 10 DVDs und 8 Blu-rays. Zusätzlich bekommt man das oben erwähnte Artbook in dem sich Illustrationen und Skizzen befinden. Außerdem erhält man mit jeder Box Zertifikat, auf dem die Nummer der Box steht, die man bekommen hat.

 

CatsEyeProduzentProduzent der Box – 135€
Wählt man für 135€ die Option „Produzent der Box“, dann bekommt man die selben Artikel wie in der limitierten Collector’s Edition. Außerdem wird der eigene Name in den „Dankes“-Credits der Box erwähnt.

Produzent der Box – 160€
Beinhaltet alles, was die „Produzent der Box“ Version auch beinhaltet. Zusätzlich darf man man sich einer der noch verfügbaren Zertifikatnummern aussuchen.

Produzent der Box – 200€
Beinhaltet alles, was die „Produzent der Box“ Version auch beinhaltet. Zusätzlich darf man man sich eine spezielle  Zertifikatnummer (1, 2, 3, 42, 666, 2000) aussuchen, die noch verfügbar ist.

 

CatsEyeMehrereBoxenMehrere Boxen – 280€
Die Option „Mehrere Boxen“ kann für alle die interessant werden, die Freunde haben, die ebenfalls Fan der Serie sind und gerne die Blu-ray haben wollen. Für 280€ bekommt man drei mal die limitierte Collector’s Edition. Damit kostet jede Box knapp 94€ und ist somit 26€ günstiger wie die einzelnen Boxen.

 

CatsEyeEpicEditionIch bin episch – 320€
Für jeden, der das Non-Plus-Ultra haben möchte, was Katzenauge betrifft, für den ist die 320€-Option mit dem Namen „Ich bin episch“ ein Must-Have. Neben der limitierten Collector’s Edition bekommt man ein Zertifikat mit der Nummer seiner Wahl, 250 Katzenaugenvisitenkarten, der eigene Name wird in den ersten Credits erscheinen und man bekommt ein Artwork seiner Wahl gedruckt und in gerahmt nach Hause geliefert.

 

CEyeGesamtausgabeUpdate vom 21.05.2014:
Blu-ray Gesamtausgabe
Auf mehrfache Anfrage hat All the Anime France eine Blu-ray Gesamtausgabe als Variante hinzugefügt. Für 100€ bekommt man die komplette Serie in zwei Digipacks.

 

 

 

 

Und nun?

Haben wir nun euer Interesse an diesem Projekt geweckt? Dann schaut doch einfach mal auf die Projektseite und klickt durch und wenn ihr Lust habt, dann unterstützt das Projekt. Bis zum 8. Juni 2014 will All the Anime France 15.000€ zusammen bekommen um diesen Release verwirklichen zu können. Im Fall, dass ihr das Projekt unterstützt, und das gesetzte Ziel nicht erreicht wird, bekommt ihr den vollen Betrag zurückerstattet. Außerdem könnt ihr es euch jeder Zeit anders überlegen, solange das Projekt die 100% Grenze noch nicht erreicht hat. Der Versand nach Deutschland beträgt übrigens 4,29€.

Hinweis: Die Bilder habe ich ins Deutsche übersetzt. Natürlich sind keine deutschen Inhalte vorhanden.

[DVD vs BD] Meitantei Conan: The Last Wizard of the Century

Hi Leute,

heute mal wieder ein etwas anderer Blogeintrag. Wie ihr auf Facebook vielleicht mitbekommen habt, habe ich mir einige der Detektiv Conan Filme auf Blu-ray auf Japan importiert. Da ich diese Filme auch alle auf DVD zu Hause habe, dachte ich mir, dass ich euch mal einen Vergleich zwischen der DVD-Version und der BD-Version machen könnte. Natürlich hab ich die Disks auch gescannt und kann euch die BDInfo bereitstellen.

Disc Title:     CONANBD03
Disc Size:      24.641.464.435 bytes
Protection:     AACS
BD-Java:        Yes
BDInfo:         0.5.8

PLAYLIST REPORT:
Name:                   00001.MPLS
Length:                 1:39:25.209 (h:m:s.ms)
Size:                   23.418.562.560 bytes
Total Bitrate:          31.41 MbpsVIDEO:

Codec                   Bitrate             Description
—–                   ——-             ———–
MPEG-4 AVC Video        27319 kbps          1080p / 23.976 fps / 16:9 / High Profile 4.1

AUDIO:

Codec                           Language        Bitrate         Description
—–                           ——–        ——-         ———–
Dolby TrueHD Audio              Japanese        1278 kbps       5.1 / 48 kHz / 1278 kbps / 16-bit (AC3 Embedded: 5.1 / 48 kHz / 640 kbps)

FILES:

Name            Time In         Length          Size            Total Bitrate
—-            ——-         ——          —-            ————-
00022.M2TS      0:00:00.000     1:39:25.209     23.418.562.560  31.407

CHAPTERS:

Number          Time In         Length          Avg Video Rate  Max 1-Sec Rate  Max 1-Sec Time  Max 5-Sec Rate  Max 5-Sec Time  Max 10Sec Rate  Max 10Sec Time  Avg Frame Size  Max Frame Size  Max Frame Time
——          ——-         ——          ————–  ————–  ————–  ————–  ————–  ————–  ————–  ————–  ————–  ————–
1               0:00:00.000     0:02:58.219     26.870 kbps     62.044 kbps     00:00:00.959    42.675 kbps     00:02:51.754    39.150 kbps     00:00:00.959    140.056 bytes   755.038 bytes   00:00:01.418
2               0:02:58.219     0:02:43.288     29.244 kbps     55.639 kbps     00:03:12.901    40.594 kbps     00:02:58.344    38.371 kbps     00:03:07.520    152.466 bytes   633.716 bytes   00:03:29.417
3               0:05:41.507     0:13:56.418     27.599 kbps     58.992 kbps     00:08:46.567    43.178 kbps     00:09:17.723    41.186 kbps     00:09:17.723    143.886 bytes   720.200 bytes   00:09:32.655
4               0:19:37.926     0:12:48.350     27.027 kbps     58.306 kbps     00:30:29.494    43.197 kbps     00:26:42.934    40.702 kbps     00:28:27.747    140.904 bytes   779.444 bytes   00:30:25.698
5               0:32:26.277     0:05:04.554     26.348 kbps     52.033 kbps     00:32:26.694    40.052 kbps     00:32:26.361    32.330 kbps     00:32:26.361    137.368 bytes   681.047 bytes   00:32:27.070
6               0:37:30.831     0:10:21.245     26.325 kbps     49.513 kbps     00:44:24.703    37.015 kbps     00:45:33.772    36.707 kbps     00:45:33.188    137.244 bytes   631.768 bytes   00:44:17.279
7               0:47:52.077     0:08:07.445     27.231 kbps     46.974 kbps     00:51:48.605    42.625 kbps     00:51:44.601    41.027 kbps     00:51:39.721    141.972 bytes   661.305 bytes   00:51:40.096
8               0:55:59.522     0:01:42.060     27.779 kbps     50.549 kbps     00:55:59.939    38.373 kbps     00:56:00.106    34.868 kbps     00:55:59.939    144.826 bytes   572.879 bytes   00:57:39.831
9               0:57:41.583     0:10:11.902     27.224 kbps     52.514 kbps     01:01:43.574    38.968 kbps     01:06:04.043    36.932 kbps     01:06:02.792    141.934 bytes   735.188 bytes   01:03:20.421
10              1:07:53.486     0:03:28.875     26.121 kbps     53.651 kbps     01:11:05.886    37.823 kbps     01:11:04.677    32.452 kbps     01:11:12.268    136.185 bytes   728.131 bytes   01:11:18.273
11              1:11:22.361     0:10:58.366     26.355 kbps     56.238 kbps     01:21:32.095    42.317 kbps     01:21:31.511    41.475 kbps     01:18:03.011    137.402 bytes   771.721 bytes   01:21:39.019
12              1:22:20.727     0:05:00.925     28.293 kbps     54.808 kbps     01:23:07.107    41.670 kbps     01:27:10.850    40.582 kbps     01:27:09.724    147.507 bytes   704.905 bytes   01:22:31.112
13              1:27:21.653     0:03:08.730     31.908 kbps     53.725 kbps     01:27:29.118    42.545 kbps     01:27:29.077    41.734 kbps     01:28:58.624    166.354 bytes   741.360 bytes   01:29:43.461
14              1:30:30.383     0:00:49.841     25.751 kbps     30.539 kbps     01:30:52.238    27.316 kbps     01:30:33.761    26.904 kbps     01:30:33.302    134.255 bytes   488.262 bytes   01:31:20.224
15              1:31:20.224     0:04:32.021     26.120 kbps     41.719 kbps     01:34:52.478    36.705 kbps     01:34:52.561    33.472 kbps     01:34:52.103    136.177 bytes   691.608 bytes   01:34:41.592
16              1:35:52.246     0:02:52.046     31.416 kbps     51.521 kbps     01:37:59.915    43.176 kbps     01:36:29.116    40.605 kbps     01:36:29.116    163.787 bytes   777.562 bytes   01:38:07.256
17              1:38:44.293     0:00:40.915     30.904 kbps     52.394 kbps     01:39:16.158    42.249 kbps     01:39:11.654    40.610 kbps     01:39:07.066    161.447 bytes   753.961 bytes   01:39:16.283

STREAM DIAGNOSTICS:

File            PID             Type            Codec           Language                Seconds                 Bitrate                 Bytes           Packets
—-            —             —-            —–           ——–                ————–          ————–          ————-   —–
00022.M2TS      4113 (0x1011)   0x1B            AVC                                     5965.126                27.319                  20.370.150.284  110.791.519
00022.M2TS      4352 (0x1100)   0x83            TrueHD          jpn (Japanese)          5965.126                1.918                   1.430.323.988   10.980.298

Generell unterscheidet sich die DVD Version von der Blu-ray-Version extrem, was Schärfe, Farben und Bildausschnitt betrifft. Man erkennt auf den Screenshots schnell, dass bei der DVD die meisten der Farben sehr an Intensität verloren haben und das natürlich durch die extreme Unschärfe viele Details verloren gegangen sind.

DVD1 BD1
DVD2 BD2
DVD-Fassung Blu-ray-Fassung

Weitere Unterschiede im kompletten Artikel

[Galerie] Cat’s Eye Blu-ray Special Box I

So, hier ist die Galerie zur Cat’s Eye Special Box 1 die am 13. März 2013 in Japan erschienen ist.

Box Vorderseite

Box Vorderseite

Box Rückseite

Box Rückseite

Box Oben

Box Oben

Box Unten

Box Unten

Box Rücken

Box Rücken

Box Seite

Box Seite

Booklet Cover

Booklet Cover

Booklet Rückseite

Booklet Rückseite

Amaray1 Vorderseite

Amaray1 Vorderseite

Amaray1 Rückseite

Amaray1 Rückseite

Amaray2 Vorderseite

Amaray2 Vorderseite

Amaray2 Rückseite

Amaray2 Rückseite

Disk 1 und Disk 2

Disk 1 und Disk 2

Disk 3 und Disk 4

Disk 3 und Disk 4

Disk 5 und Disk 6

Disk 5 und Disk 6

Filmstreifen

Filmstreifen

Hier noch die BDInfo zur ersten Disk:

DISC INFO:Disc Title: BDROM
Disc Size: 44.768.267.808 bytes
Protection: AACS
BD-Java: No
BDInfo: 0.5.8PLAYLIST REPORT:Name: 00000.MPLS
Length: 2:28:00.246 (h:m:s.ms)
Size: 44.720.885.760 bytes
Total Bitrate: 40.29 MbpsVIDEO:Codec Bitrate Description
—– ——- ———–
MPEG-4 AVC Video 36773 kbps 1080p / 23.976 fps / 16:9 / High Profile 4.1AUDIO:Codec Language Bitrate Description
—– ——– ——- ———–
LPCM Audio Japanese 1536 kbps 2.0 / 48 kHz / 1536 kbps / 16-bitFILES:Name Time In Length Size Total Bitrate
—- ——- —— —- ————-
00000.M2TS 0:00:00.000 0:24:41.479 7.462.631.424 40.298
00001.M2TS 0:24:41.479 0:24:40.604 7.459.049.472 40.303
00002.M2TS 0:49:22.084 0:24:39.477 7.461.015.552 40.344
00003.M2TS 1:14:01.562 0:24:39.477 7.458.115.584 40.328
00004.M2TS 1:38:41.040 0:24:39.728 7.450.355.712 40.280
00005.M2TS 2:03:20.768 0:24:39.477 7.429.718.016 40.175

Und hier noch ein paar Screenshots, damit ihr euch ein Bild davon machen könnt wie die Bildqualität aussieht:

Cat's Eye Screenshot Cat's Eye Screenshot Cat's Eye Screenshot
Cat's Eye Screenshot Cat's Eye Screenshot Cat's Eye Screenshot
Cat's Eye Screenshot Cat's Eye Screenshot Cat's Eye Screenshot

Hauptmenü

Hauptmenü

[Galerie] Attack No.1 Blu-ray Box I

Hi Leute,
hier ist die Galerie zur Attack No.1 Blu-ray Box, die in Japan am 5. Dezember 2012 erschienen ist. In Zukunft werde ich euch immer mal wieder eine solche Galerie präsentieren, wenn ich eine Box kaufe, die mir besonders gut gefällt.

Box  - Vorderseite

Box – Vorderseite

Box - Rückseite

Box – Rückseite

Box - Seitlich 1

Box – Seitlich 1

Box - Seitlich 2

Box – Seitlich 2

Box - Unterseite

Box – Unterseite

Amaray1 - Vorderseite

Amaray1 – Vorderseite

Amaray1 - Rückseite

Amaray1 – Rückseite

Amaray1 - Disk1 und Disk2

Amaray1 – Disk1 und Disk2

Amaray1 - Disk3 und Disk4

Amaray1 – Disk3 und Disk4

Amaray1 - Innenseite des Covers

Amaray1 – Innenseite des Covers

Amaray2 - Vorderseite

Amaray2 – Vorderseite

Amaray2 - Disk 5 und Disk6

Amaray2 – Disk 5 und Disk6

Amaray2 - Disk 7 und Disk8

Amaray2 – Disk 7 und Disk8

Booklet - Cover

Booklet – Cover

Booklet - Rückseite

Booklet – Rückseite

Booklet - Seite1 und Seite2

Booklet – Seite1 und Seite2

Booklet - Seite3 und Seite4

Booklet – Seite3 und Seite4

Booklet - Seite5 und Seite6

Booklet – Seite5 und Seite6

Booklet - Seite7 und Seite8

Booklet – Seite7 und Seite8

Booklet - Seite9 und Seite10

Booklet – Seite9 und Seite10

Postkarte

Postkarte