[Galerie] Kill la Kill Vol. 4 & 5 [BD JP]

Um euch einen kleinen Einblick in Volume 4 und 5 von Kill la Kill zu geben, ist hier eine weitere Galerie. Volume 4 erschien am 2. April 2014, Volume 5 am 7. Mai 2014.

Volume 4

Volume 4 Schuber Vorderseite

Schuber Vorderseite

Volume 4 Schuber Rückseite

Schuber Rückseite

Volume 4 Digipack Aussen

Digipack Aussen

Volume 4 Digipack Innen

Digipack Innen

Volume 4 Datenblatt

Datenblatt

Volume 4 Disks

Disks

Volume 4 Booklet Aussen

Booklet Aussen

Volume 4 Booklet Innen

Booklet Innen

Volume 4 Artbook Vorderseite

Artbook Vorderseite

Volume 4 Artbook Rückseite

Artbook Rückseite

Volume 4 Beilagen

Beilagen

Volume 5

Volume 5 Schuber Vorderseite

Schuber Vorderseite

Volume 5 Schuber Rückseite

Schuber Rückseite

Volume 5 Digipack Aussen

Digipack Aussen

Volume 5 Digipack Innen

Digipack Innen

Volume 5 Datenblatt

Datenblatt

Volume 5 Disks

Disks

Volume 5 Booklet Aussen

Booklet Aussen

Volume 5 Booklet Innen

Booklet Innen

Volume 5 Artbook Vorderseite

Artbook Vorderseite

Volume 5 Artbook Rückseite

Artbook Rückseite

Volume 5 Flyer Vorderseite

Flyer Vorderseite

Volume 5 Flyer Rückseite

Flyer Rückseite

Volume 5 Beilagen

Beilagen

BDInfo zu Volume 4:

DISC INFO:

Disc Title: BDROM
Disc Size: 24.471.766.882 bytes
Protection: AACS
BD-Java: No
BDInfo: 0.5.8

PLAYLIST REPORT:

Name: 00000.MPLS
Length: 1:13:34.910 (h:m:s.ms)
Size: 23.599.478.784 bytes
Total Bitrate: 42.76 Mbps

VIDEO:

Codec Bitrate Description
—– ——- ———–
MPEG-4 AVC Video 35935 kbps 1080p / 23.976 fps / 16:9 / High Profile 4.1

AUDIO:

Codec Language Bitrate Description
—– ——– ——- ———–
LPCM Audio Japanese 2304 kbps 2.0 / 48 kHz / 2304 kbps / 24-bit
LPCM Audio Japanese 2304 kbps 2.0 / 48 kHz / 2304 kbps / 24-bit

SUBTITLES:

Codec Language Bitrate Description
—– ——– ——- ———–
Presentation Graphics Japanese 258.448 kbps

FILES:

Name Time In Length Size Total Bitrate
—- ——- —— —- ————-
00000.M2TS 0:00:00.000 0:24:29.009 7.864.184.832 42.827
00004.M2TS 0:24:29.009 0:24:29.009 7.861.395.456 42.812
00013.M2TS 0:48:58.018 0:24:29.009 7.864.879.104 42.831
00001.M2TS 1:13:27.027 0:00:07.882 9.019.392 9.153

BDInfo zu Volume 5:

DISC INFO:

Disc Title: BDROM
Disc Size: 24.569.138.366 bytes
Protection: AACS
BD-Java: No
BDInfo: 0.5.8

PLAYLIST REPORT:

Name: 00000.MPLS
Length: 1:13:34.952 (h:m:s.ms)
Size: 23.617.112.064 bytes
Total Bitrate: 42.79 Mbps

VIDEO:

Codec Bitrate Description
—– ——- ———–
MPEG-4 AVC Video 35941 kbps 1080p / 23.976 fps / 16:9 / High Profile 4.1

AUDIO:

Codec Language Bitrate Description
—– ——– ——- ———–
LPCM Audio Japanese 2304 kbps 2.0 / 48 kHz / 2304 kbps / 24-bit
LPCM Audio Japanese 2304 kbps 2.0 / 48 kHz / 2304 kbps / 24-bit

SUBTITLES:

Codec Language Bitrate Description
—– ——– ——- ———–
Presentation Graphics Japanese 282.795 kbps

FILES:

Name Time In Length Size Total Bitrate
—- ——- —— —- ————-
00000.M2TS 0:00:00.000 0:24:29.009 7.857.014.784 42.788
00004.M2TS 0:24:29.009 0:24:29.009 7.872.731.136 42.874
00013.M2TS 0:48:58.018 0:24:29.050 7.878.346.752 42.903
00001.M2TS 1:13:27.069 0:00:07.882 9.019.392 9.153

Und hier noch ein paar Screenshots aus Volume 4, damit ihr euch ein Bild davon machen könnt wie die Bildqualität aussieht:

Kill la Kill Screenshot Kill la Kill Screenshot
Kill la Kill Screenshot Kill la Kill Screenshot
Kill la Kill Screenshot Kill la Kill Screenshot

Schreib einen Kommentar

Deine E-Mail-Adresse wird nicht veröffentlicht. Erforderliche Felder sind markiert *