[Galerie] Kill la Kill Vol. 2 & 3 [BD JP]

Hier ist die Galerie von Volume 2 und Volume 3 von Kill la Kill. Volume 2 erschien am 5. Februar 2014, Volume 3 am 5. März 2014.

Volume 2

Schuber Vorderseite - Volume 2

Schuber Vorderseite

Schuber Rückseite - Volume 2

Schuber Rückseite

Digipack Aussen - Volume 2

Digipack Aussen

Digipack Innen - Volume 2

Digipack Innen

Datenblatt - Volume 2

Datenblatt

Blu-ray und CD - Volume 2

Blu-ray und CD

Booklet Cover - Volume 2

Booklet Cover

Booklet Innen - Volume 2

Booklet Innen

Key Art Collection Vorderseite - Volume 2

Key Art Collection Vorderseite

Key Art Collection Rückseite - Volume 2

Key Art Collection Rückseite

Beilagen - Volume 2

Beilagen

Volume 3

Schuber Vorderseite - Volume 3

Schuber Vorderseite

Schuber Rückseite - Volume 3

Schuber Rückseite

Digipack Aussen - Volume 3

Digipack Aussen

Digipack Innen - Volume 3

Digipack Innen

Datenblatt - Volume 3

Datenblatt

Blu-ray und DVD - Volume 3

Blu-ray und DVD

Booklet Cover - Volume 3

Booklet Cover

Booklet Innen - Volume 3

Booklet Innen

Key Art Collection Vorderseite - Volume 3

Key Art Collection Vorderseite

Key Art Collection Rückseite - Volume 3

Key Art Collection Rückseite

Flyer - Volume 3

Flyer

Flyer - Volume 3

Flyer

Beilage - Volume 3

Beilage

Beilage - Volume 3

Beilage

BDInfo zu Volume 2:

DISC INFO:

Disc Title: BDROM
Disc Size: 23.987.741.923 bytes
Protection: AACS
BD-Java: No
BDInfo: 0.5.8

PLAYLIST REPORT:

Name: 00000.MPLS
Length: 1:13:34.952 (h:m:s.ms)
Size: 22.541.113.344 bytes
Total Bitrate: 40.85 Mbps

VIDEO:

Codec Bitrate Description
—– ——- ———–
MPEG-4 AVC Video 34110 kbps 1080p / 23.976 fps / 16:9 / High Profile 4.1

AUDIO:

Codec Language Bitrate Description
—– ——– ——- ———–
LPCM Audio Japanese 2304 kbps 2.0 / 48 kHz / 2304 kbps / 24-bit
LPCM Audio Japanese 2304 kbps 2.0 / 48 kHz / 2304 kbps / 24-bit

SUBTITLES:

Codec Language Bitrate Description
—– ——– ——- ———–
Presentation Graphics Japanese 245.593 kbps

FILES:

Name Time In Length Size Total Bitrate
—- ——- —— —- ————-
00000.M2TS 0:00:00.000 0:24:29.050 7.668.203.520 41.759
00004.M2TS 0:24:29.050 0:24:29.009 7.481.137.152 40.741
00013.M2TS 0:48:58.060 0:24:29.009 7.382.753.280 40.205
00001.M2TS 1:13:27.069 0:00:07.882 9.019.392 9.153

BDInfo zu Volume 3:

DISC INFO:

Disc Title: BDROM
Disc Size: 24.529.656.763 bytes
Protection: AACS
BD-Java: No
BDInfo: 0.5.8

PLAYLIST REPORT:

Name: 00000.MPLS
Length: 1:13:34.993 (h:m:s.ms)
Size: 23.213.537.280 bytes
Total Bitrate: 42.06 Mbps

VIDEO:

Codec Bitrate Description
—– ——- ———–
MPEG-4 AVC Video 35268 kbps 1080p / 23.976 fps / 16:9 / High Profile 4.1

AUDIO:

Codec Language Bitrate Description
—– ——– ——- ———–
LPCM Audio Japanese 2304 kbps 2.0 / 48 kHz / 2304 kbps / 24-bit
LPCM Audio Japanese 2304 kbps 2.0 / 48 kHz / 2304 kbps / 24-bit

SUBTITLES:

Codec Language Bitrate Description
—– ——– ——- ———–
Presentation Graphics Japanese 254.744 kbps

FILES:

Name Time In Length Size Total Bitrate
—- ——- —— —- ————-
00000.M2TS 0:00:00.000 0:24:29.009 7.725.748.224 42.073
00004.M2TS 0:24:29.009 0:24:29.050 7.744.899.072 42.176
00013.M2TS 0:48:58.060 0:24:29.050 7.733.870.592 42.116
00001.M2TS 1:13:27.111 0:00:07.882 9.019.392 9.153

Und hier noch ein paar Screenshots aus Volume 2, damit ihr euch ein Bild davon machen könnt wie die Bildqualität aussieht:

Screenshot - Volume 2 Screenshot - Volume 2
Screenshot - Volume 2 Screenshot - Volume 2
Screenshot - Volume 2 Screenshot - Volume 2
Screenshot - Volume 2 Screenshot - Volume 2

4 Gedanken zu „[Galerie] Kill la Kill Vol. 2 & 3 [BD JP]

  1. Nina

    Guten Abend und kurze Frage,
    glaubst du, dass Peppermints release ähnlich ausfallen wird?
    Ich hoffe, dass uns das ganze bonusmaterial erhalten bleibt!

    Antworten
    1. Darkexy Artikelautor

      Hi! Naja, das weiß leider nur peppermint selbst… Ich hoffe natürlich, dass wir deutsche Fassung auch so toll Aufgezogen wird wie die Japanische, allerdings glaube ich nicht, dass es hier so Extras geben wird wie beispielsweise den OST, der bei Volume 1 dabei war. Digitale Extras auf der Disk halte ich für wahrscheinlicher. Müssen wir uns aber wohl gedulden, bis peppermint sich dazu äußert.

      Antworten
  2. Stefan

    Sind die Hauptmenüs genauso aufgebaut wie bei Volume 1?
    Und meinst du Peppermint übernimmt die Menü-Layouts ? (Falls du bereits Erfahrung hast mit deren BDs und einen Vergleich hast, oder aus Erfahrung :-)

    Antworten
    1. Darkexy Artikelautor

      Jap, die Hauptmenüs sind identisch mit dem der ersten Blu-ray. Ich glaube allerdings nicht, dass wir eine „deutsche Fassung“ des Menüs bekommen. Bei Sword Art Online hat peppermint auch ein eigenes Layout verwendet, dass sich sehr von dem der US Blu-rays unterscheidet.
      Aber letztendlich bleibt uns nur abzuwarten!

      Antworten

Schreib einen Kommentar

Deine E-Mail-Adresse wird nicht veröffentlicht. Erforderliche Felder sind markiert *