[Galerie] Cat’s Eye Blu-ray Special Box I

So, hier ist die Galerie zur Cat’s Eye Special Box 1 die am 13. März 2013 in Japan erschienen ist.

Box Vorderseite

Box Vorderseite

Box Rückseite

Box Rückseite

Box Oben

Box Oben

Box Unten

Box Unten

Box Rücken

Box Rücken

Box Seite

Box Seite

Booklet Cover

Booklet Cover

Booklet Rückseite

Booklet Rückseite

Amaray1 Vorderseite

Amaray1 Vorderseite

Amaray1 Rückseite

Amaray1 Rückseite

Amaray2 Vorderseite

Amaray2 Vorderseite

Amaray2 Rückseite

Amaray2 Rückseite

Disk 1 und Disk 2

Disk 1 und Disk 2

Disk 3 und Disk 4

Disk 3 und Disk 4

Disk 5 und Disk 6

Disk 5 und Disk 6

Filmstreifen

Filmstreifen

Hier noch die BDInfo zur ersten Disk:

DISC INFO:Disc Title: BDROM
Disc Size: 44.768.267.808 bytes
Protection: AACS
BD-Java: No
BDInfo: 0.5.8PLAYLIST REPORT:Name: 00000.MPLS
Length: 2:28:00.246 (h:m:s.ms)
Size: 44.720.885.760 bytes
Total Bitrate: 40.29 MbpsVIDEO:Codec Bitrate Description
—– ——- ———–
MPEG-4 AVC Video 36773 kbps 1080p / 23.976 fps / 16:9 / High Profile 4.1AUDIO:Codec Language Bitrate Description
—– ——– ——- ———–
LPCM Audio Japanese 1536 kbps 2.0 / 48 kHz / 1536 kbps / 16-bitFILES:Name Time In Length Size Total Bitrate
—- ——- —— —- ————-
00000.M2TS 0:00:00.000 0:24:41.479 7.462.631.424 40.298
00001.M2TS 0:24:41.479 0:24:40.604 7.459.049.472 40.303
00002.M2TS 0:49:22.084 0:24:39.477 7.461.015.552 40.344
00003.M2TS 1:14:01.562 0:24:39.477 7.458.115.584 40.328
00004.M2TS 1:38:41.040 0:24:39.728 7.450.355.712 40.280
00005.M2TS 2:03:20.768 0:24:39.477 7.429.718.016 40.175

Und hier noch ein paar Screenshots, damit ihr euch ein Bild davon machen könnt wie die Bildqualität aussieht:

Cat's Eye Screenshot Cat's Eye Screenshot Cat's Eye Screenshot
Cat's Eye Screenshot Cat's Eye Screenshot Cat's Eye Screenshot
Cat's Eye Screenshot Cat's Eye Screenshot Cat's Eye Screenshot

Hauptmenü

Hauptmenü

Schreib einen Kommentar

Deine E-Mail-Adresse wird nicht veröffentlicht. Erforderliche Felder sind markiert *