Kategorie-Archiv: Galerie

[Galerie] Kill la Kill Vol. 4 & 5 [BD JP]

Um euch einen kleinen Einblick in Volume 4 und 5 von Kill la Kill zu geben, ist hier eine weitere Galerie. Volume 4 erschien am 2. April 2014, Volume 5 am 7. Mai 2014.

Volume 4

Volume 4 Schuber Vorderseite

Schuber Vorderseite

Volume 4 Schuber Rückseite

Schuber Rückseite

Volume 4 Digipack Aussen

Digipack Aussen

Volume 4 Digipack Innen

Digipack Innen

Volume 4 Datenblatt

Datenblatt

Volume 4 Disks

Disks

Volume 4 Booklet Aussen

Booklet Aussen

Volume 4 Booklet Innen

Booklet Innen

Volume 4 Artbook Vorderseite

Artbook Vorderseite

Volume 4 Artbook Rückseite

Artbook Rückseite

Volume 4 Beilagen

Beilagen

Weiterlesen

[Galerie] Kill la Kill Vol. 2 & 3 [BD JP]

Hier ist die Galerie von Volume 2 und Volume 3 von Kill la Kill. Volume 2 erschien am 5. Februar 2014, Volume 3 am 5. März 2014.

Volume 2

Schuber Vorderseite - Volume 2

Schuber Vorderseite

Schuber Rückseite - Volume 2

Schuber Rückseite

Digipack Aussen - Volume 2

Digipack Aussen

Digipack Innen - Volume 2

Digipack Innen

Datenblatt - Volume 2

Datenblatt

Blu-ray und CD - Volume 2

Blu-ray und CD

Booklet Cover - Volume 2

Booklet Cover

Booklet Innen - Volume 2

Booklet Innen

Key Art Collection Vorderseite - Volume 2

Key Art Collection Vorderseite

Key Art Collection Rückseite - Volume 2

Key Art Collection Rückseite

Beilagen - Volume 2

Beilagen

Weiterlesen

[Galerie] Ninja Scroll – Limited Edition UK

Hier ist die Galerie des limitierten Ninja Scroll Steelbooks aus Großbritannien, die dort am 26. November 2012 erschienen ist.

Steelbook

Steelbook

Datenblatt

Datenblatt

Steelbook - Außen

Steelbook – Außen

Steelbook - Innen

Steelbook – Innen

DVD und Blu-ray

DVD und Blu-ray

Booklet - Cover

Booklet – Cover

Booklet - Rückseite

Booklet – Rückseite

Booklet - Seite 1 & 2

Booklet – Seite 1 & 2

Booklet - Seite 3 & 4

Booklet – Seite 3 & 4

Booklet - Seite 5 & 6

Booklet – Seite 5 & 6

Booklet - Seite 7 & 8

Booklet – Seite 7 & 8

Booklet - Seite 9 & 10

Booklet – Seite 9 & 10

Booklet - Seite 11 & 12

Booklet – Seite 11 & 12

Booklet - Seite 13 & 14

Booklet – Seite 13 & 14

Booklet - Seite 15 & 16

Booklet – Seite 15 & 16

Hier noch die BDInfo zur ersten Disk:

DISC INFO:

Disc Title: NINJA SCROLL
Disc Size: 22.603.087.997 bytes
Protection: AACS
BD-Java: No
BDInfo: 0.5.8

PLAYLIST REPORT:

Name: 00000.MPLS
Length: 1:31:38.284 (h:m:s.ms)
Size: 21.971.355.648 bytes
Total Bitrate: 31.97 Mbps

VIDEO:

Codec Bitrate Description
—– ——- ———–
MPEG-4 AVC Video 24382 kbps 1080p / 23.976 fps / 16:9 / High Profile 4.1

AUDIO:

Codec Language Bitrate Description
—– ——– ——- ———–
DTS-HD Master Audio English 2355 kbps 5.1 / 48 kHz / 2355 kbps / 16-bit (DTS Core: 5.1 / 48 kHz / 1509 kbps / 16-bit)
LPCM Audio Japanese 1536 kbps 2.0 / 48 kHz / 1536 kbps / 16-bit
LPCM Audio Japanese 1536 kbps 2.0 / 48 kHz / 1536 kbps / 16-bit

SUBTITLES:

Codec Language Bitrate Description
—– ——– ——- ———–
Presentation Graphics English 24.559 kbps
Presentation Graphics English 39.464 kbps

FILES:

Name Time In Length Size Total Bitrate
—- ——- —— —- ————-
00000.M2TS 0:00:00.000 1:31:37.533 21.971.202.048 31.972
00203.M2TS 1:31:37.533 0:00:00.750 153.600 1.637

Und hier noch ein paar Screenshots, damit ihr euch ein Bild davon machen könnt wie die Bildqualität aussieht:

Ninja Scroll Screenshot Ninja Scroll Screenshot Ninja Scroll Screenshot
Ninja Scroll Screenshot Ninja Scroll Screenshot Ninja Scroll Screenshot
Ninja Scroll Screenshot Ninja Scroll Screenshot Ninja Scroll Screenshot

[Galerie] Cat’s Eye Blu-ray Special Box I

So, hier ist die Galerie zur Cat’s Eye Special Box 1 die am 13. März 2013 in Japan erschienen ist.

Box Vorderseite

Box Vorderseite

Box Rückseite

Box Rückseite

Box Oben

Box Oben

Box Unten

Box Unten

Box Rücken

Box Rücken

Box Seite

Box Seite

Booklet Cover

Booklet Cover

Booklet Rückseite

Booklet Rückseite

Amaray1 Vorderseite

Amaray1 Vorderseite

Amaray1 Rückseite

Amaray1 Rückseite

Amaray2 Vorderseite

Amaray2 Vorderseite

Amaray2 Rückseite

Amaray2 Rückseite

Disk 1 und Disk 2

Disk 1 und Disk 2

Disk 3 und Disk 4

Disk 3 und Disk 4

Disk 5 und Disk 6

Disk 5 und Disk 6

Filmstreifen

Filmstreifen

Hier noch die BDInfo zur ersten Disk:

DISC INFO:Disc Title: BDROM
Disc Size: 44.768.267.808 bytes
Protection: AACS
BD-Java: No
BDInfo: 0.5.8PLAYLIST REPORT:Name: 00000.MPLS
Length: 2:28:00.246 (h:m:s.ms)
Size: 44.720.885.760 bytes
Total Bitrate: 40.29 MbpsVIDEO:Codec Bitrate Description
—– ——- ———–
MPEG-4 AVC Video 36773 kbps 1080p / 23.976 fps / 16:9 / High Profile 4.1AUDIO:Codec Language Bitrate Description
—– ——– ——- ———–
LPCM Audio Japanese 1536 kbps 2.0 / 48 kHz / 1536 kbps / 16-bitFILES:Name Time In Length Size Total Bitrate
—- ——- —— —- ————-
00000.M2TS 0:00:00.000 0:24:41.479 7.462.631.424 40.298
00001.M2TS 0:24:41.479 0:24:40.604 7.459.049.472 40.303
00002.M2TS 0:49:22.084 0:24:39.477 7.461.015.552 40.344
00003.M2TS 1:14:01.562 0:24:39.477 7.458.115.584 40.328
00004.M2TS 1:38:41.040 0:24:39.728 7.450.355.712 40.280
00005.M2TS 2:03:20.768 0:24:39.477 7.429.718.016 40.175

Und hier noch ein paar Screenshots, damit ihr euch ein Bild davon machen könnt wie die Bildqualität aussieht:

Cat's Eye Screenshot Cat's Eye Screenshot Cat's Eye Screenshot
Cat's Eye Screenshot Cat's Eye Screenshot Cat's Eye Screenshot
Cat's Eye Screenshot Cat's Eye Screenshot Cat's Eye Screenshot

Hauptmenü

Hauptmenü

[Galerie] Attack No.1 Blu-ray Box I

Hi Leute,
hier ist die Galerie zur Attack No.1 Blu-ray Box, die in Japan am 5. Dezember 2012 erschienen ist. In Zukunft werde ich euch immer mal wieder eine solche Galerie präsentieren, wenn ich eine Box kaufe, die mir besonders gut gefällt.

Box  - Vorderseite

Box – Vorderseite

Box - Rückseite

Box – Rückseite

Box - Seitlich 1

Box – Seitlich 1

Box - Seitlich 2

Box – Seitlich 2

Box - Unterseite

Box – Unterseite

Amaray1 - Vorderseite

Amaray1 – Vorderseite

Amaray1 - Rückseite

Amaray1 – Rückseite

Amaray1 - Disk1 und Disk2

Amaray1 – Disk1 und Disk2

Amaray1 - Disk3 und Disk4

Amaray1 – Disk3 und Disk4

Amaray1 - Innenseite des Covers

Amaray1 – Innenseite des Covers

Amaray2 - Vorderseite

Amaray2 – Vorderseite

Amaray2 - Disk 5 und Disk6

Amaray2 – Disk 5 und Disk6

Amaray2 - Disk 7 und Disk8

Amaray2 – Disk 7 und Disk8

Booklet - Cover

Booklet – Cover

Booklet - Rückseite

Booklet – Rückseite

Booklet - Seite1 und Seite2

Booklet – Seite1 und Seite2

Booklet - Seite3 und Seite4

Booklet – Seite3 und Seite4

Booklet - Seite5 und Seite6

Booklet – Seite5 und Seite6

Booklet - Seite7 und Seite8

Booklet – Seite7 und Seite8

Booklet - Seite9 und Seite10

Booklet – Seite9 und Seite10

Postkarte

Postkarte